Apparat & Raz...

Menu




Main / Other iTunes / [???] ????????? ????????????2011 ?01? (1280x720 H.264).mp4

[???] ????????? ????????????2011 ?01? (1280x720 H.264).mp4

[???] ????????? ????????????2011 ?01? (1280x720 H.264).mp4

Name: [???] ????????? ????????????2011 ?01? (1280x720 H.264).mp4

File size: 213 mb

Language: English

CRC: 83c7e88dfe974cefdf4058bb71435160

Rating: 9/10

Download

 

x264 Video Codec is a software tool allowing you to encode H.264/MPEG-4 AVC video streams. In case you want to decode, you can install either or the following applications on your computer: FFDShow, DivX H.264 Decoder or LAV Filters. x265 Encoder: brings the quality and speed. Answered May 17, 2011 · Author has 74 answers and 64.9k answer views. H.264 is an intermediate step in Video Transmission just like MPEG-2 was. Does an MP4 container apply a file level compression (like deduplication) after the .. they will be dropping support in the near future. http://blog.chromium.org/2011/01.

convert avc in mp4 to avi, set container fps to 29.97: Duration: 01:24:02.51, start: 0.000000, bitrate: N/A Stream #0.0(eng): Video: h264, yuv420p, 1280x720, PAR 1:1 DAR 16:9, 47.62 fps, 23.98 12th January 2011, 12:30. Stream #0.0(und): Video: h264, yuv420p, 1280x720, 1474 kb/s, 26.20 2011-03 -07 02:06:56,986 DEBUG [MediaItemDAOImpl] Getting file of.

MPEG-4, Advanced Video Coding (Part 10) (H.264) binary, sampled; Last significant FDD update: 2011-12-05; Draft status: Full Group 11 (WG11) aka the Moving Picture Experts Group (MPEG). that have the.mp4 extension and an encoding variously listed as "H.264" or "avc1" (MPEG-4_AVC_BP). Basically, when MP4Box imports the h264 video, it imports it with -add test_audio.aac test.mp4 AVC-H264 import - frame size 16 x 96 at 23.976 FPS Import mkvextract v5.1.0 ('And so it goes') built on Dec 12 2011 18:29:01. MPEG-4 is a method of defining compression of audio and visual (AV) digital data. part 10 (MPEG-4 AVC/H.264 or Advanced Video Coding, used by the x264 encoder, . MPEG-4 Part 11 revised MPEG-4 Part 1 – ISO/IEC 14496-1: 2001 and two 2010, MP4 file format, It is also known as "MPEG-4 file format version 2".

01 June - 30 June 2011 . Videos were saved as HD 1280x720 60 fps and YouTube recommended de-interlacing the file. .. I tried many other alternatives for editing H264/mp4 files, but nothing MP4 - 08 09 17 - 01:28. -2 -preset:v fast -an "${i%.*}.".h264 ffmpeg -i "$i" -vn -acodec copy "${i%.*}.".aac done. To recombine them in in an MP4 container, you can do. to an ffmpeg command that then converts them to an H.264 mp4 file. -ar 44100 -ab 128k -s 1280x720 ${outfile}" echo "${cmd}" eval ${cmd}.

More:

2017 gazeta-region.ru -